The.Identical.2014.WEB-DL.XviD.AC3-RARBG

  • Category Movies
  • Type Divx/Xvid
  • Language English
  • Total size 1.5 GB
  • Uploaded By TeXTX
  • Downloads 17
  • Last checked 1 day ago
  • Date uploaded 4 years ago
  • Seeders 0
  • Leechers 0

Infohash : 09334664A0E4855D82B654A4C98073AD49D7271B

The.Identical.2014.WEB-DL.XviD.AC3-RARBG

Screens:







Info:

[mediainfo]

Format : AVI
Format/Info : Audio Video Interleave
File size : 1.46 GiB
Duration : 1h 46mn
Overall bit rate : 1 955 Kbps
Movie name : RARBG.COM - The.Identical.2014.WEB-DL.XviD.AC3-RARBG
Writing library : VirtualDub build 35491/release
Comment : RARBG.COM - The.Identical.2014.WEB-DL.XviD.AC3-RARBG

Video
ID : 0
Format : MPEG-4 Visual
Format profile : [email protected]
Format settings, BVOP : No
Format settings, QPel : No
Format settings, GMC : No warppoints
Format settings, Matrix : Default (H.263)
Codec ID : XVID
Codec ID/Hint : XviD
Duration : 1h 46mn
Bit rate : 1 561 Kbps
Width : 720 pixels
Height : 304 pixels
Display aspect ratio : 2.40:1
Frame rate : 23.976 fps
Color space : YUV
Chroma subsampling : 4:2:0
Bit depth : 8 bits
Scan type : Progressive
Compression mode : Lossy
Bits/(Pixel*Frame) : 0.297
Stream size : 1.16 GiB (80%)
Writing library : Lavc56.13.100

Audio
ID : 1
Format : AC-3
Format/Info : Audio Coding 3
Mode extension : CM (complete main)
Format settings, Endianness : Big
Codec ID : 2000
Duration : 1h 46mn
Bit rate mode : Constant
Bit rate : 384 Kbps
Channel(s) : 6 channels
Channel positions : Front: L C R, Side: L R, LFE
Sampling rate : 48.0 KHz
Bit depth : 16 bits
Compression mode : Lossy
Stream size : 293 MiB (20%)
Alignment : Aligned on interleaves
Interleave, duration : 42 ms (1.00 video frame)
Interleave, preload duration : 512 ms





[/mediainfo]

Notes:
Greetz to all! :)

Files:

  • RARBG.com.avi (1.1 MB)
  • RARBG.com.txt (0.0 KB)
  • The.Identical.2014.WEB-DL.XviD.AC3-RARBG.avi (1.5 GB)
  • The.Identical.2014.WEB-DL.XviD.AC3-RARBG.nfo (2.8 KB)

There are currently no comments. Feel free to leave one :)

Code:

  • http://tracker.trackerfix.com:80/announce
  • udp://9.rarbg.me:2710/announce
  • udp://11.rarbg.me:80/announce
  • udp://10.rarbg.me:80/announce
  • udp://12.rarbg.me:80/announce
  • udp://9.rarbg.com:2710/announce
SitemapCrochet con totora | Family Leave | 1x07 Saint Seiya Saintia Sho 11.02.1920:20 Uhr Disco Disco Disco Vol.14 House320 kbit/s 0 / 02.277 Hits VID P2P DDL 0 Kommentare | Peter Leeds | No Ficción