Class S01E01 For Tonight We Might Die WebRip x264-MCTV

  • Category TV
  • Type DVD
  • Language English
  • Total size 224.4 MB
  • Uploaded By Mulva1989
  • Downloads 826
  • Last checked 7 months ago
  • Date uploaded 2 years ago
  • Seeders 1
  • Leechers 0

Infohash : E0AAD36068E0AD0D938365795A024956668E8459


Class S01E01 For Tonight We Might Die WebRip x264-MCTV
http://www.imdb.com/title/tt5079788

Airdate : 2016-10-22



It’s a new term at Coal Hill Academy, and students are preparing for their Autumn Prom. But when the school comes under attack, four alienated students must form an unlikely alliance to defeat them. And this incursion is only the beginning… Charlie, April, Ram and Tanya, assisted by their physics teacher Miss Quill, are charged with a great responsibility by the mysterious alien known as the Doctor: guard against the creatures of nightmare that want nothing more than to find a way through to Earth and take it for their own.

Screenshots

Click to enlarge







Format : MPEG-4
Format profile : Base Media
Codec ID : isom (isom/avc1)
File size : 224 MiB
Duration : 50 min 23 s
Overall bit rate mode : Variable
Overall bit rate : 623 kb/s
Encoded date : UTC 2016-10-22 11:01:12
Tagged date : UTC 2016-10-22 11:01:12

Video
ID : 1
Format : AVC
Format/Info : Advanced Video Codec
Format profile : [email protected]
Format settings, CABAC : Yes
Format settings, ReFrames : 8 frames
Codec ID : avc1
Codec ID/Info : Advanced Video Coding
Duration : 50 min 23 s
Bit rate : 523 kb/s
Maximum bit rate : 2 961 kb/s
Width : 720 pixels
Height : 404 pixels
Display aspect ratio : 16:9
Frame rate mode : Constant
Frame rate : 25.000 FPS
Color space : YUV
Chroma subsampling : 4:2:0
Bit depth : 8 bits
Scan type : Progressive
Bits/(Pixel*Frame) : 0.072
Stream size : 188 MiB (84%)
Writing library : x264 core 148 r2705 3f5ed56
Encoding settings : cabac=1 / ref=8 / deblock=1:0:0 / analyse=0x3:0x113 / me=umh / subme=9 / psy=1 / psy_rd=1.00:0.00 / mixed_ref=1 / me_range=24 / chroma_me=1 / trellis=1 / 8x8dct=1 / cqm=0 / deadzone=21,11 / fast_pskip=1 / chroma_qp_offset=-2 / threads=6 / lookahead_threads=1 / sliced_threads=0 / nr=0 / decimate=1 / interlaced=0 / bluray_compat=0 / constrained_intra=0 / bframes=5 / b_pyramid=2 / b_adapt=2 / b_bias=0 / direct=3 / weightb=1 / open_gop=0 / weightp=2 / keyint=250 / keyint_min=25 / scenecut=40 / intra_refresh=0 / rc_lookahead=60 / rc=crf / mbtree=1 / crf=23.0 / qcomp=0.60 / qpmin=0 / qpmax=69 / qpstep=4 / ip_ratio=1.40 / aq=2:1.00
Encoded date : UTC 2016-10-22 11:01:12
Tagged date : UTC 2016-10-22 11:01:16

Audio
ID : 2
Format : AAC
Format/Info : Advanced Audio Codec
Format profile : LC
Codec ID : 40
Duration : 50 min 22 s
Bit rate mode : Variable
Bit rate : 96.0 kb/s
Maximum bit rate : 110 kb/s
Channel(s) : 2 channels
Channel positions : Front: L R
Sampling rate : 48.0 kHz
Frame rate : 46.875 FPS (1024 spf)
Compression mode : Lossy
Stream size : 34.6 MiB (15%)
Title : Class.S01E01.For.Tonight.We.Might.Die.WebRip.x264-MCTV.aac#audio - Imported with GPAC 0.5.0-rev
Encoded date : UTC 2016-10-22 11:01:15
Tagged date : UTC 2016-10-22 11:01:16

Files:

Class.S01E01.For.Tonight.We.Might.Die.WebRip.x264-MCTV
  • Class.S01E01.For.Tonight.We.Might.Die.WebRip.x264-MCTV.mp4 (224.4 MB)
  • MulvaCodedTV.jpg (30.3 KB)

There are currently no comments. Feel free to leave one :)

Code:

  • udp://tracker.coppersurfer.tk:6969/announce
  • udp://tracker.zer0day.to:1337/announce
  • http://pow7.com/announce
  • udp://tracker.opentrackr.org:1337/announce
  • udp://p4p.arenabg.com:1337/announce
  • udp://inferno.demonoid.pw:3393/announce
  • udp://tracker.mg64.net:2710/announce
  • udp://ipv4.tracker.harry.lu:80/announce
  • udp://tracker.tiny-vps.com:6969/announce
  • udp://mgtracker.org:6969/announce
  • udp://tracker.ex.ua:80/announce
  • udp://tracker.ilibr.org:6969/announce
  • udp://9.rarbg.me:2710/announce
  • udp://explodie.org:6969/announce
  • udp://inferno.subdemon.com:3395/announce
SitemapEin Engel auf Erden (1) | Dora the Explorer (2019) | HD Judas Kiss (1998) Mobile Suit Gundam: Iron-Blooded Orphans S2 | Daniel Berenger | Watch Now