Sully.2016.1080p.10bit.HDR.BluRay.5.1.x265.HEVC-MZABI

  • Category Movies
  • Type HD
  • Language English
  • Total size 1.5 GB
  • Uploaded By Mzabi
  • Downloads 637
  • Last checked 7 months ago
  • Date uploaded 1 year ago
  • Seeders 3
  • Leechers 0

Sully

HistoryDrama

On January 15, 2009, the world witnessed the "Miracle on the Hudson" when Captain "Sully" Sullenberger glided his disabled plane onto the frigid waters of the Hudson River, saving the lives of all 155 aboard. However, even as Sully was being heralded by the public and the media for his unprecedented feat of aviation skill, an investigation was unfolding that threatened to destroy his reputation and his career.

Infohash : 405199182A7A02EA8681FEA7AF14CCDA6DFBF59C

Source: Sully (2016) 2160p UltraHD Blu-ray HDR Atmos 7.1 x265-ULTRAHDCLUB



General
Unique ID : 221660474577361075072903396168908672805 (0xA6C2412A07705A2FB0AA5C3839400F25)
Complete name : D:\Seed\Sully.2016.1080p.10bit.HDR.BluRay.5.1.x265.HEVC-MZABI.mkv
Format : Matroska
Format version : Version 4 / Version 2
File size : 1.48 GiB
Duration : 1 h 35 min
Overall bit rate : 2 205 kb/s
Encoded date : UTC 2017-04-26 09:27:11
Writing application : mkvmerge v9.6.0 ('Slave To Your Mind') 64bit
Writing library : libebml v1.3.4 + libmatroska v1.4.5

Video
ID : 1
Format : HEVC
Format/Info : High Efficiency Video Coding
Format profile : Main [email protected]@Main
Codec ID : V_MPEGH/ISO/HEVC
Duration : 1 h 35 min
Bit rate : 2 000 kb/s
Width : 1 920 pixels
Height : 800 pixels
Display aspect ratio : 2.40:1
Frame rate mode : Constant
Frame rate : 23.976 (24000/1001) FPS
Original frame rate : 23.976 (23976/1000) FPS
Color space : YUV
Chroma subsampling : 4:2:0
Bit depth : 10 bits
Bits/(Pixel*Frame) : 0.054
Stream size : 1.34 GiB (91%)
Title : HEVC x265 10bit Video / 2000 kbps / 1080p / 23.976 fps / Main 10 Profile 4
Writing library : x265 1.9:[Linux][GCC 4.6.2][64 bit] 10bit
Encoding settings : wpp / ctu=64 / min-cu-size=8 / max-tu-size=32 / tu-intra-depth=1 / tu-inter-depth=1 / me=3 / subme=3 / merange=57 / rect / no-amp / max-merge=3 / temporal-mvp / no-early-skip / rdpenalty=0 / no-tskip / no-tskip-fast / strong-intra-smoothing / no-lossless / no-cu-lossless / no-constrained-intra / no-fast-intra / no-open-gop / no-temporal-layers / interlace=0 / keyint=250 / min-keyint=23 / scenecut=40 / rc-lookahead=25 / lookahead-slices=4 / bframes=4 / bframe-bias=0 / b-adapt=2 / ref=3 / limit-refs=3 / limit-modes / weightp / no-weightb / aq-mode=1 / qg-size=32 / aq-strength=1.00 / cbqpoffs=0 / crqpoffs=0 / rd=4 / psy-rd=2.00 / rdoq-level=2 / psy-rdoq=1.00 / signhide / deblock / sao / no-sao-non-deblock / b-pyramid / cutree / no-intra-refresh / rc=2 / pass / bitrate=2000 / qcomp=0.60 / qpmin=0 / qpmax=51 / qpstep=4 / cplxblur=20.0 / qblur=0.5 / ipratio=1.40 / pbratio=1.30
Default : Yes
Forced : No
Color range : Limited
Color primaries : BT.2020
Transfer characteristics : SMPTE ST 2084
Matrix coefficients : BT.2020 non-constant

Audio
ID : 2
Format : AAC
Format/Info : Advanced Audio Codec
Format profile : HE-AAC / LC
Codec ID : A_AAC
Duration : 1 h 35 min
Bit rate : 192 kb/s
Channel(s) : 6 channels
Channel positions : Front: L C R, Side: L R, LFE
Sampling rate : 48.0 kHz / 24.0 kHz
Frame rate : 23.438 FPS (1024 spf)
Compression mode : Lossy
Delay relative to video : 40 ms
Stream size : 132 MiB (9%)
Title : HE-AAC / 5.1 / 48 kHz / 192 kbps
Language : English
Default : No
Forced : No

Text #1
ID : 3
Format : UTF-8
Codec ID : S_TEXT/UTF8
Codec ID/Info : UTF-8 Plain Text
Duration : 1 h 31 min
Bit rate : 71 b/s
Count of elements : 1536
Stream size : 48.3 KiB (0%)
Language : English
Default : No
Forced : No

Text #2
ID : 4
Format : UTF-8
Codec ID : S_TEXT/UTF8
Codec ID/Info : UTF-8 Plain Text
Duration : 1 h 31 min
Bit rate : 79 b/s
Count of elements : 1641
Stream size : 53.4 KiB (0%)
Language : English
Default : No
Forced : No

Text #3
ID : 5
Format : PGS
Muxing mode : zlib
Codec ID : S_HDMV/PGS
Codec ID/Info : Picture based subtitle format used on BDs/HD-DVDs
Duration : 1 h 35 min
Bit rate : 10.8 kb/s
Count of elements : 3062
Stream size : 7.42 MiB (0%)
Language : Arabic
Default : No
Forced : No

Menu
00:00:00.000 : en:Chapter 1
00:11:12.505 : en:Chapter 2
00:18:06.168 : en:Chapter 3
00:29:57.921 : en:Chapter 4
00:38:55.416 : en:Chapter 5
00:49:20.749 : en:Chapter 6
01:00:50.856 : en:Chapter 7
01:08:16.384 : en:Chapter 8
01:18:09.810 : en:Chapter 9
01:26:59.798 : en:Chapter 10

Files:

  • Sully.2016.1080p.10bit.HDR.BluRay.5.1.x265.HEVC-MZABI.mkv (1.5 GB)

There are currently no comments. Feel free to leave one :)

Code:

  • udp://tracker.leechers-paradise.org:6969/announce
SitemapBishop Briggs | Horacio Garcia Rojas | Glenn Langan Danny Glover | One Piece 7 | Watch Teen Wolf