Mummy (2018) 720p Hindi Dubbed (Clean) HDRip x264 AAC by Full4mov...

  • Category Movies
  • Type HD
  • Language Hindi
  • Total size 640.1 MB
  • Uploaded By shmasti
  • Downloads 455
  • Last checked 6 months ago
  • Date uploaded 6 months ago
  • Seeders 8
  • Leechers 6

Infohash : A865860C7D80799586C278A0B40C4D448F3C466E



General
Complete name : Mummy (2018) 720p Hindi Dubbed (Clean) HDRip x264 AAC by Full4movies.mkv
Format : Matroska
Format version : Version 4 / Version 2
File size : 640 MiB
Duration : 2 h 0 min
Overall bit rate : 742 kb/s
Encoded date : UTC 2018-07-07 18:13:40
Writing application : mkvmerge v8.1.0 ('Psychedelic Postcard') 32bit
Writing library : libebml v1.3.1 + libmatroska v1.4.2

Video
ID : 1
Format : AVC
Format/Info : Advanced Video Codec
Format profile : [email protected]
Format settings, CABAC : Yes
Format settings, RefFrames : 3 frames
Codec ID : V_MPEG4/ISO/AVC
Duration : 2 h 0 min
Bit rate : 614 kb/s
Width : 1 280 pixels
Height : 720 pixels
Display aspect ratio : 16:9
Frame rate mode : Constant
Frame rate : 25.000 FPS
Color space : YUV
Chroma subsampling : 4:2:0
Bit depth : 8 bits
Scan type : Progressive
Bits/(Pixel*Frame) : 0.027
Stream size : 530 MiB (83%)
Default : Yes
Forced : No
Color range : Limited
Color primaries : BT.709
Transfer characteristics : BT.709
Matrix coefficients : BT.709

Audio
ID : 2
Format : AAC
Format/Info : Advanced Audio Codec
Format profile : LC
Codec ID : A_AAC
Duration : 2 h 0 min
Bit rate : 126 kb/s
Channel(s) : 2 channels
Channel positions : Front: L R
Sampling rate : 44.1 kHz
Frame rate : 43.066 FPS (1024 SPF)
Compression mode : Lossy
Stream size : 108 MiB (17%)
Language : Hindi
Default : Yes
Forced : No

Screen Shoots

Files:

  • Mummy (2018) 720p Hindi Dubbed (Clean) HDRip x264 AAC by Full4movies.mkv (640.1 MB)

There are currently no comments. Feel free to leave one :)

Code:

  • udp://tracker.coppersurfer.tk:6969/announce
  • udp://tracker.opentrackr.org:1337/announce
  • udp://9.rarbg.me:2710/announce
  • udp://tracker.torrent.eu.org:451/announce
  • udp://open.stealth.si:80/announce
  • udp://public.popcorn-tracker.org:6969/announce
  • udp://p4p.arenabg.ch:1337/announce
  • udp://tracker.zer0day.to:1337/announce
  • udp://tracker.pirateparty.gr:6969/announce
  • udp://tracker.leechers-paradise.org:6969/announce
  • udp://tracker.tiny-vps.com:6969/announce
  • udp://bt.firebit.co.uk:6969/announce
  • udp://inferno.demonoid.pw:3397/announce
  • udp://shadowshq.yi.org:6969/announce
  • udp://9.rarbg.to:2780/announce
SitemapLove, Cecil | Caf coton courtes femme Chemisier World en pour Putao manches pliss YxFSpInz | Newsletter One Piece 681 | 공룡전대 쥬렌쟈 | Animes VOSTFR