Hummingbird (2013) DVDRip XViD juggs

  • Category Movies
  • Type Divx/Xvid
  • Language English
  • Total size 706.5 MB
  • Uploaded By juggs
  • Downloads 9424
  • Last checked 45 minutes ago
  • Date uploaded 5 years ago
  • Seeders 6
  • Leechers 0

Hummingbird

ActionThriller

Homeless and on the run from a military court martial, a damaged ex-special forces soldier navigating London's criminal underworld seizes an opportunity to assume another man's identity, transforming into an avenging angel in the process.

Infohash : 022CD8D3A69EA9EC1048521057E828021FA204A3



Source : NTSC DVDR(Thanks)

http://www.imdb.com/title/tt1893256/

ormat : AVI
Format/Info : Audio Video Interleave
File size : 697 MiB
Duration : 1h 40mn
Overall bit rate : 971 Kbps
Writing library : VirtualDub build 32842/release

Video
ID : 0
Format : MPEG-4 Visual
Format profile : Advanced [email protected]
Format settings, BVOP : 2
Format settings, QPel : No
Format settings, GMC : No warppoints
Format settings, Matrix : Default (H.263)
Muxing mode : Packed bitstream
Codec ID : XVID
Codec ID/Hint : XviD
Duration : 1h 40mn
Bit rate : 834 Kbps
Width : 640 pixels
Height : 272 pixels
Display aspect ratio : 2.35:1
Frame rate : 23.976 fps
Color space : YUV
Chroma subsampling : 4:2:0
Bit depth : 8 bits
Scan type : Progressive
Compression mode : Lossy
Bits/(Pixel*Frame) : 0.200
Stream size : 599 MiB (86%)
Writing library : XviD 64

Audio
ID : 1
Format : MPEG Audio
Format version : Version 1
Format profile : Layer 3
Codec ID : 55
Codec ID/Hint : MP3
Duration : 1h 40mn
Bit rate mode : Constant
Bit rate : 128 Kbps
Channel(s) : 2 channels
Sampling rate : 48.0 KHz
Compression mode : Lossy
Stream size : 91.9 MiB (13%)
Alignment : Split accross interleaves
Interleave, duration : 42 ms (1.00 video frame)
Interleave, preload duration : 500 ms
Writing library : LAME3.99r






Files:

  • Hummingbird (2013) DVDRip XViD juggs.avi (697.3 MB)
  • Torrent Downloaded From ExtraTorrent.com.txt (0.3 KB)
  • sample.avi (9.2 MB)

Comments

Code:

  • http://fr33dom.h33t.com:3310/announce
  • udp://fr33dom.h33t.com:3310/announce
  • udp://10.rarbg.com/announce
  • udp://11.rarbg.com:80/announce
  • udp://fr33domtracker.h33t.com:3310/announce
  • udp://9.rarbg.com:2710/announce
  • http://tracker.ex.ua/announce
  • udp://www.h33t.com:3310/announce
  • udp://tracker.publicbt.com:80/announce
  • http://94.228.192.98/announce
  • udp://ipv4.tracker.harry.lu:80/announce
  • udp://tracker.publichd.eu/announce
SitemapКрейг из царства Ручья / Craig of the Creek [01x01-09 из 20] (2018) WEBRip 1080p | NewStation | Minahil app Minahil Mahmood -71% $4.99 | The Entropy Crisis 2008 Suspense | Bloody Romance | Temporada 1